<?xml version="1.0" standalone="no"?>
<!DOCTYPE svg PUBLIC "-//W3C//DTD SVG 1.1//EN" "http://www.w3.org/Graphics/SVG/1.1/DTD/svg11.dtd" >
<svg xmlns="http://www.w3.org/2000/svg">
<metadata>Generated by IcoMoon</metadata>
<defs>
<font id="icomoon" horiz-adv-x="1024">
<font-face units-per-em="1024" ascent="960" descent="-64" />
<missing-glyph horiz-adv-x="1024" />
<glyph unicode="&#x20;" d="" horiz-adv-x="512" />
<glyph unicode="&#xe600;" d="M960 320h-320v-320q0-27-18.5-45.5t-45.5-18.5h-128q-27 0-45.5 19t-18.5 45v320h-320q-27 0-45.5 19t-18.5 45v128q0 27 18.5 45.5t45.5 18.5h320v320q0 27 18.5 45.5t45.5 18.5h128q27 0 45.5-18.5t18.5-45.5v-320h320q27 0 45.5-18.5t18.5-45.5v-128q0-26-18.5-45t-45.5-19z" />
<glyph unicode="&#xe601;" d="M701 448l303-304q20-20 20-47.5t-20-46.5l-94-94q-19-20-47-20t-47 20l-304 303-304-303q-19-20-47-20t-47 20l-94 94q-20 19-20 46.5t20 47.5l303 304-303 303q-20 20-20 47.5t20 47.5l94 94q19 19 47 19t47-19l304-304 304 304q19 19 47 19t47-19l94-94q20-20 20-47.5t-20-47.5z" />
<glyph unicode="&#xe602;" d="M1024 512v-128q0-27-19-45.5t-45-18.5h-896q-26 0-45 18.5t-19 45.5v128q0 26 18.5 45t45.5 19h896q26 0 45-19t19-45z" />
<glyph unicode="&#xe603;" d="M1006 635l-619-618q-18-18-53-17-32 1-49 17l-267 267q-18 18-18 44t18 44l89 89q18 18 44 18t44-18l141-141 493 492q18 18 44 18t44-18l89-88q18-19 18-44.5t-18-44.5z" />
<glyph unicode="&#xe604;" d="M896 192q0-5-0.5-14.5t-3.5-36-8.5-50.5-17.5-53.5-28-51-42.5-36-59.5-14.5q-63 0-118 20t-95.5 48-79 56-86.5 48-101 20q-77 0-102.5 5t-25.5 27q0 48 54.5 131.5t122 159.5 151.5 171.5 120 145.5q-42-21-60.5-29.5t-59.5-21.5-72-13q-52 0-90 40t-38 88q0 26 6.5 49t16 36.5 19 24 15.5 14.5l7 4q1-3 3.5-7t11.5-15 19.5-19.5 27-15.5 34.5-7q76 0 140 10t97 22 64 22 51 10q23 0 37-5t19.5-16 6.5-19 1-24q0-35-55.5-112.5t-126-155-155-175-125.5-155.5q57-20 140-64.5t148.5-75 109.5-30.5q79 0 124 58z" />
<glyph unicode="&#xe605;" d="M896-64h-768q-53 0-90.5 37.5t-37.5 90.5v768q0 53 37.5 90.5t90.5 37.5h768q53 0 90.5-37.5t37.5-90.5v-768q0-53-37.5-90.5t-90.5-37.5zM256 896h-128v-256h128v256zM512 576q-80 0-136-56t-56-136 56-136 136-56 136 56 56 136-56 136-136 56zM896 800q0 13-9.5 22.5t-22.5 9.5h-64q-13 0-22.5-9.5t-9.5-22.5v-64q0-13 9.5-22.5t22.5-9.5h64q13 0 22.5 9.5t9.5 22.5v64zM960 576h-192q64-86 64-192 0-87-43-160.5t-116.5-116.5-160.5-43-160.5 43-116.5 116.5-43 160.5q0 106 64 192h-192v-512q0-27 18.5-45.5t45.5-18.5h768q26 0 45 18.5t19 45.5v512z" />
<glyph unicode="&#xe606;" d="M768 448q-71 0-145-14-27 77-61 144 93 44 165.5 111t114.5 150q85-72 133.5-174t48.5-217q0-19-2-45-122 45-254 45zM531 634q-107 185-255 268 111 58 236 58 151 0 278-82-38-78-104.5-141t-154.5-103zM473 612q-105-36-217-36-116 0-227 40 53 152 183 247 152-68 261-251zM256 512q130 0 248 43 32-64 58-136-142-41-247.5-132t-153.5-211q-76 71-118.5 167.5t-42.5 204.5q0 54 11 107 121-43 245-43zM581 358q56-190 58-405-64-17-127-17-164 0-298 97 38 114 135.5 200t231.5 125zM643 372q63 12 125 12 126 0 244-46-27-124-109.5-221t-199.5-144q-5 213-60 399z" />
<glyph unicode="&#xe607;" d="M640 192q-53 0-103.5 30.5t-73.5 84.5q-23-82-38.5-135.5t-35.5-115.5-35-92-25-28q-22 5 0.5 173t60.5 333q-12 45-1 102 14 66 50 113t73 47 54-47 4-113q-10-47-32-86t-49-58q0-1-2-6 32-60 77-99t76-39q61 0 106 47.5t65.5 118.5 20.5 154q0 87-38.5 160.5t-105 116.5-144.5 43-144.5-43-105-116.5-38.5-160.5q0-51 22-101 4-16 1-41t-18.5-47.5-35.5-20.5q-97 99-97 210 0 104 55.5 192.5t151.5 140 209 51.5 209-51.5 151.5-140 55.5-192.5q0-72-23.5-141t-64.5-123-101.5-87-130.5-33z" />
<glyph unicode="&#xe608;" d="M911 127l-215 372q-12 44-42 77h353q17-65 17-128 0-180-113-321zM512 640q-15 0-30-2l174 301q112-33 199.5-112t130.5-187h-474zM333 517l-174 301q70 67 161 104.5t192 37.5q39 0 79-6l-214-371q-30-29-44-66zM369 321h-353q-16 62-16 127 0 180 113 321l214-370q12-43 42-78zM512 256q11 0 30 3l-174-302q-113 33-200 112t-131 188h469q1 0 3-0.5t3-0.5zM691 380l174-302q-70-67-161-104.5t-192-37.5q-36 0-79 7l213 368q29 28 45 69z" />
<glyph unicode="&#xe609;" d="M896-64h-768q-53 0-90.5 37.5t-37.5 90.5v768q0 53 37.5 90.5t90.5 37.5h768q53 0 90.5-37.5t37.5-90.5v-768q0-53-37.5-90.5t-90.5-37.5zM128 0h768q27 0 45.5 18.5t18.5 45.5v283l-320-91-160 256h160l68-101 219 58q-155 107-351 107-94 0-183-27l183-325-512-122v-38q0-27 19-45.5t45-18.5zM366 319l-96 181q-48-24-78.5-47.5t-43.5-47.5-16.5-41.5-3.5-43.5q0-29 2-63zM896 896h-768q-26 0-45-18.5t-19-45.5v-271q70 45 136 71l-72 136h128l61-97q128 33 259 33 203 0 384-76v204q0 27-18.5 45.5t-45.5 18.5z" />
<glyph unicode="&#xe60a;" d="M640 704h320v-64h-320v64zM800.5 576q104.5 0 164-73t59.5-183h-384q0-85 40.5-138.5t119.5-53.5q63 0 101 35t52 93h65q-16-86-72.5-139t-145.5-53q-104 0-164 73t-60 183 60 183 164.5 73zM953 384q-13 59-51.5 93.5t-101 34.5-101-34.5-52.5-93.5h306zM512 256q0-79-62.5-135.5t-151.5-56.5h-298v704h261q77 0 132-56t55-136q0-81-51-140 49-21 82-70.5t33-109.5zM264 704h-200v-256h200q50 0 85 37.5t35 90.5-35 90.5-85 37.5zM304 384h-240v-256h240q59 0 101.5 37.5t42.5 90.5-42.5 90.5-101.5 37.5z" />
<glyph unicode="&#xe60b;" d="M832-64h-704q-53 0-90.5 37.5t-37.5 90.5v704q0 53 37.5 90.5t90.5 37.5h704q53 0 90.5-37.5t37.5-90.5v-704q0-53-37.5-90.5t-90.5-37.5zM256 544v128q0 13-9.5 22.5t-22.5 9.5-22.5-9.5-9.5-22.5v-96h-96q-13 0-22.5-9.5t-9.5-22.5v-256q0-13 9.5-22.5t22.5-9.5h128q13 0 22.5 9.5t9.5 22.5v256zM352 704q-13 0-22.5-9.5t-9.5-22.5 9.5-22.5 22.5-9.5 22.5 9.5 9.5 22.5-9.5 22.5-22.5 9.5zM384 544q0 13-9.5 22.5t-22.5 9.5-22.5-9.5-9.5-22.5v-256q0-13 9.5-22.5t22.5-9.5 22.5 9.5 9.5 22.5v256zM640 288v256q0 13-9.5 22.5t-22.5 9.5h-128q-13 0-22.5-9.5t-9.5-22.5v-256q0-13 9.5-22.5t22.5-9.5h96v-64h-96q-13 0-22.5-9.5t-9.5-22.5 9.5-22.5 22.5-9.5h128q13 0 22.5 9.5t9.5 22.5v128zM896 544q0 13-9.5 22.5t-22.5 9.5h-128q-13 0-22.5-9.5t-9.5-22.5v-256q0-13 9.5-22.5t22.5-9.5h96v-64h-96q-13 0-22.5-9.5t-9.5-22.5 9.5-22.5 22.5-9.5h128q13 0 22.5 9.5t9.5 22.5v384zM768 512h64v-192h-64v192zM512 512h64v-192h-64v192zM128 512h64v-192h-64v192z" />
<glyph unicode="&#xe60c;" d="M1024 320l-192-107v-85l-320-192-320 192v85l-192 107 192 192-192 192 320 192 192-192 192 192 320-192-192-192zM512 653l-277-167 277-166 277 166z" />
<glyph unicode="&#xe60d;" d="M577 736l426-434q21-21 21-51t-21-51l-51-51q-21-21-51-21t-51 21l-338 338-338-338q-21-21-51-21t-51 21l-51 51q-21 21-21 51t21 51l428 434q32 32 64 32t64-32z" />
<glyph unicode="&#xe60e;" d="M512-64q-104 0-199 40.5t-163.5 109-109 163.5-40.5 199 40.5 199 109 163.5 163.5 109 199 40.5 199-40.5 163.5-109 109-163.5 40.5-199-40.5-199-109-163.5-163.5-109-199-40.5zM683 585q0 70-50 120t-121 50-121-50-50-120v-205q0-14-10-24t-24-10-24 10-10 24v102h-137v-102q0-71 50-121t121-50 121 50 50 121v205q0 14 10 24t24 10 24-10 10-24v-35l68-68 69 68v35zM751 482v-102q0-14-10-24t-24-10-24 10-10 24v102l-69-68-68 68v-102q0-71 50-121t120.5-50 120.5 50 50 121v102h-136z" />
<glyph unicode="&#xe60f;" d="M912 635l-255-254-257 255q-15 15-36.5 15t-36.5-15-15-36.5 15-36.5l367-363q46-46 46-110t-46-109-110.5-45-109.5 45l-368 364q-69 69-94 162t0 185.5 94.5 162 163.5 94 187.5 0 163.5-94.5l36-36 47 46q21 21 57 29.5t78.5-2 72.5-40.5q47-47 47.5-109t-47.5-107zM672 640l-128 128q-62 62-130 84t-129 4.5-113-69.5q-50-50-68-112.5t-3-122 59-104.5l384-384q32-32 64 0t0 64l-371 372q-46 46-46 111t46 112q30 29 71.5 40t79 3.5 60.5-30.5l160-160q15-15 32-15t32 15q32 32 0 64z" />
<glyph unicode="&#xe610;" d="M800 704q-40 0-68-28t-28-68q0-38 42.5-67t85.5-29q80 0 136-56t56-136-56-136-136-56q-49 0-91 26.5t-69 69.5q-49 129-96 224-22 43-46 83t-37 59l-13 18q-9 29-60 62.5t-100 33.5q-106 0-181-75t-75-181 75-181 181-75 181 75l45-45q-44-45-102.5-69.5t-123.5-24.5q-87 0-160.5 43t-116.5 116.5-43 160.5 43 160.5 116.5 116.5 160.5 43q65 0 132-39.5t92-88.5q46-60 96-160 20-41 44-97t38-91l14-36q40-64 96-64 53 0 90.5 37.5t37.5 90.5-37.5 90.5-90.5 37.5q-69 0-130.5 48t-61.5 112q0 66 47 113t113 47q69 0 114.5-39t45.5-89h-64q-11 26-39 45t-57 19z" />
<glyph unicode="&#xe611;" d="M1024 448q0-111-26-187t-86-128.5-158-76.5-242-24-242 24-158 76.5-86 128.5-26 187q0 149 78 231-14 102-14 153 0 13 9.5 22.5t22.5 9.5q12 0 84-33t98-52q98 21 234 21 118 0 209-16 31 20 97.5 50t77.5 30q13 0 22.5-9.5t9.5-22.5q0-35-10-127 106-83 106-257zM512 608q-20 0-58 1-46 2-88-0.5t-78.5-7.5-66-22-50-44-32-73-11.5-110q0-122 97.5-189t286.5-67 286.5 67 97.5 189q0 64-11.5 110t-32 73-50 44-66 22-78.5 7.5-88 0.5q-38-1-58-1zM704 288q-27 0-45.5 28t-18.5 68 19 68 45 28 45-28 19-68-18.5-68-45.5-28zM544 160h-64q-13 0-22.5 9.5t-9.5 22.5 9.5 22.5 22.5 9.5h64q13 0 22.5-9.5t9.5-22.5-9.5-22.5-22.5-9.5zM320.5 288q-26.5 0-45.5 28t-19 68 19 68 45.5 28 45-28 18.5-68-18.5-68-45-28z" />
<glyph unicode="&#xe612;" d="M896-64h-768q-53 0-90.5 37.5t-37.5 90.5v96q0 26 18.5 45t45 19 45.5-19 19-45v-32q0-27 18.5-45.5t45.5-18.5h640q26 0 45 18.5t19 45.5v32q0 26 18.5 45t45 19 45.5-19 19-45v-96q0-53-37.5-90.5t-90.5-37.5zM545 206q-14-14-33-14t-33 14l-341 345q-12 13-8.5 19t18.5 6h236v320q0 27 18.5 45.5t45.5 18.5h128q27 0 45.5-18.5t18.5-45.5v-320h235q15 0 19-6t-8-19z" />
<glyph unicode="&#xe613;" d="M512 64q-66 0-134 16-34-40-69.5-69.5t-60-43.5-47.5-21.5-30.5-8.5-10.5-1q26 57 30 124.5t-14 113.5q-82 63-129 151t-47 187q0 91 40.5 174t109 143 163.5 95.5 199 35.5 199-35.5 163.5-95.5 109-143 40.5-174-40.5-174-109-143-163.5-95.5-199-35.5z" />
<glyph unicode="&#xe614;" d="M512 448l-512 259v61q0 27 19 45.5t45 18.5h896q26 0 45-18.5t19-45.5v-61zM480 384h64l480 249v-505q0-26-19-45t-45-19h-896q-26 0-45 19t-19 45v505z" />
<glyph unicode="&#xe615;" d="M768 512q26 0 45-18.5t19-45.5v-64q0-27-19-45.5t-45-18.5h-192v-320q0-26-19-45t-45-19h-64q-27 0-45.5 19t-18.5 45v320h-64q-27 0-45.5 18.5t-18.5 45.5v64q0 27 18.5 45.5t45.5 18.5h64v192q0 106 75 181t181 75h128q27 0 45.5-18.5t18.5-45.5v-64q0-27-18.5-45.5t-45.5-18.5h-128q-27 0-45.5-18.5t-18.5-45.5v-192h192z" />
<glyph unicode="&#xe616;" d="M1024 192q0-106-75-181t-181-75q-103 0-177 71-41-7-79-7-91 0-174 35.5t-143 95.5-95.5 143-35.5 174q0 37 7 79-71 74-71 177 0 106 75 181t181 75q103 0 177-71 41 7 79 7 91 0 174-35.5t143-95.5 95.5-143 35.5-174q0-38-7-79 71-74 71-177zM512 640q53 0 90.5-18.5t37.5-45 19-45.5 45.5-19 45 19 18.5 45q0 80-75 136t-181 56-181-56-75-136 75-136 181-56q53 0 90.5-18.5t37.5-45.5-37.5-45.5-90.5-18.5-90.5 19-37.5 45.5-18.5 45-45 18.5-45.5-18.5-19-45.5q0-80 75-136t181-56 181 56 75 136-75 136-181 56q-53 0-90.5 19t-37.5 45.5 37.5 45 90.5 18.5z" />
<glyph unicode="&#xe617;" d="M928 96q-222-32-416-32-86 0-190 8t-165 16l-61 8q-27 5-47.5 37.5t-30 78.5-14 86-4.5 73v154q0 255 96 275 222 32 416 32 86 0 190-8t165-16l61-8q29-4 49.5-36.5t29.5-79.5 13-86 4-73v-154q0-36-3-73t-12-85-30-80-51-37zM693 473l-262 160q-11 10-29 5.5t-18-14.5v-352q0-11 18-15t29 6l262 160q11 10 11 25t-11 25z" />
<glyph unicode="&#xe618;" d="M800 192q-93 0-158.5 65.5t-65.5 158.5 65.5 158.5 158.5 65.5 158.5-65.5 65.5-158.5-65.5-158.5-158.5-65.5zM224 192q-93 0-158.5 65.5t-65.5 158.5 65.5 158.5 158.5 65.5 158.5-65.5 65.5-158.5-65.5-158.5-158.5-65.5z" />
<glyph unicode="&#xe619;" d="M896-64h-768q-53 0-90.5 37.5t-37.5 90.5v768q0 53 37.5 90.5t90.5 37.5h768q53 0 90.5-37.5t37.5-90.5v-768q0-53-37.5-90.5t-90.5-37.5zM864 192l-288 576q-23 64-64 64-6 0-12.5-2t-11-4.5-9.5-8-8-8.5-7-10.5-5.5-10.5l-5.5-11t-5-9l-288-576q-1-2-16.5-27t-15.5-37q0-26 19-45t45-19h256v149l-119 118q-9 9-9 22t9 22 22 9 22-9l75-76v53q0 13 9.5 22.5t22.5 9.5h53l54 55q9 9 22 9t22-9 9-22-9-22l-55-54v-106l75 76q9 9 22 9t22-9 9-22-9-22l-119-118v-85h256q26 0 45 19t19 45q0 9-6 21.5t-15 26z" />
<glyph unicode="&#xe61a;" d="M896-64h-768q-53 0-90.5 37.5t-37.5 90.5v768q0 53 37.5 90.5t90.5 37.5h768q53 0 90.5-37.5t37.5-90.5v-768q0-53-37.5-90.5t-90.5-37.5zM960 832q0 27-18.5 45.5t-45.5 18.5h-384v-448h-448v-384q0-27 19-45.5t45-18.5h384v448h448v384z" />
<glyph unicode="&#xe61b;" d="M960-64h-896q-26 0-45 19t-19 45v128q0 26 19 45t45.5 19 45-19 18.5-45v-64h768v64q0 26 18.5 45t45 19 45.5-19 19-45v-128q0-27-19-45.5t-45-18.5zM887 416q-13-23-38.5-30t-48.5 6.5-30 39.5 7 49l30 107-111 275q-7 12-11.5 28.5t-5.5 31.5 5 26 20 11q30 0 44.5-5.5t26.5-26.5l79-176 51 176q13 23 38.5 29.5t48.5-6.5 30-39-7-49zM576 512q-27 0-45.5 18.5t-18.5 45.5v256q0 26-18.5 45t-45.5 19-45.5-19-18.5-45v-256q0-27-18.5-45.5t-45.5-18.5-45.5 18.5-18.5 45.5v256q0 26-18.5 45t-45.5 19-45.5-19-18.5-45v-256q0-27-18.5-45.5t-45.5-18.5-45.5 18.5-18.5 45.5v320q0 26 19 45t45 19q27 0 46-19 40 19 82 19 73 0 128-50 55 50 128 50 79 0 135.5-56.5t56.5-135.5v-192q0-27-18.5-45.5t-45.5-18.5z" />
<glyph unicode="&#xe61c;" d="M896-64h-416q64 68 64 160 0 111-76 181-13 12-29.5 25t-35.5 27-27 20v1q-24 13-24 66 0 14 21.5 33t42.5 31q24 13 44 57.5t20 102.5q0 56-18.5 108.5t-54.5 83.5h73l64 64h-314q-156 0-230-78v14q0 53 37.5 90.5t90.5 37.5h768q53 0 90.5-37.5t37.5-90.5v-768q0-53-37.5-90.5t-90.5-37.5zM928 704h-96v96q0 13-9.5 22.5t-22.5 9.5-22.5-9.5-9.5-22.5v-96h-96q-13 0-22.5-9.5t-9.5-22.5 9.5-22.5 22.5-9.5h96v-96q0-13 9.5-22.5t22.5-9.5 22.5 9.5 9.5 22.5v96h96q13 0 22.5 9.5t9.5 22.5-9.5 22.5-22.5 9.5zM192 832q78 0 135-56.5t57-135.5q0-76-45.5-118t-114.5-42q-65 0-112.5 56.5t-47.5 135.5q0 67 40.5 113.5t87.5 46.5zM192 416v-32q0-22 8-46t16-37l8-13q-134 0-224-52v243q67-61 192-63zM0 119q22 55 93.5 80t162.5 25q42 0 85.5-19.5t75-57.5 31.5-83q0-38-22.5-71.5t-60.5-56.5h-237q-53 0-90.5 37.5t-37.5 90.5v55z" />
<glyph unicode="&#xe61d;" d="M896-64h-768q-53 0-90.5 37.5t-37.5 90.5v768q0 53 37.5 90.5t90.5 37.5h768q53 0 90.5-37.5t37.5-90.5v-768q0-53-37.5-90.5t-90.5-37.5zM256 800q0 13-9.5 22.5t-22.5 9.5h-64q-13 0-22.5-9.5t-9.5-22.5v-64q0-13 9.5-22.5t22.5-9.5h64q13 0 22.5 9.5t9.5 22.5v64zM256 608q0 13-9.5 22.5t-22.5 9.5h-64q-13 0-22.5-9.5t-9.5-22.5v-512q0-13 9.5-22.5t22.5-9.5h64q13 0 22.5 9.5t9.5 22.5v512zM896 448q0 80-56 136t-136 56q-44 0-96.5-14t-95.5-39v21q0 13-9.5 22.5t-22.5 9.5h-64q-13 0-22.5-9.5t-9.5-22.5v-512q0-13 9.5-22.5t22.5-9.5h64q13 0 22.5 9.5t9.5 22.5v288q0 53 37.5 90.5t90.5 37.5 90.5-37.5 37.5-90.5v-288q0-13 9.5-22.5t22.5-9.5h64q13 0 22.5 9.5t9.5 22.5v352z" />
<glyph unicode="&#xe61e;" d="M704-64h-384q-87 0-160.5 43t-116.5 116.5-43 160.5v384q0 87 43 160.5t116.5 116.5 160.5 43h192q87 0 160.5-43t116.5-116.5 43-160.5q0-26 18.5-45t45.5-19h64q26 0 45-18.5t19-45.5v-256q0-87-43-160.5t-116.5-116.5-160.5-43zM512 704h-192q-27 0-45.5-18.5t-18.5-45 18.5-45.5 45.5-19h192q27 0 45.5 19t18.5 45.5-19 45-45 18.5zM704 320h-384q-27 0-45.5-18.5t-18.5-45 18.5-45.5 45.5-19h384q26 0 45 19t19 45.5-19 45-45 18.5z" />
<glyph unicode="&#xe61f;" d="M480-64q-46 0-84 25.5t-64 71.5-45.5 99.5-33.5 119-23.5 120.5-19.5 114-18 90q-2 7-5.5 27t-7 35-10 31.5-17 25.5-24.5 9q-15 0-45-19t-51-45l-32 64q144 256 288 256 50 0 82-42.5t46-117.5q8-42 22.5-126.5t25-141.5 24.5-118.5 28-93.5 28-32q30 0 76.5 58t81 135 34.5 127q0 55-22.5 75.5t-64.5 20.5q-41 0-73-28 1 70 30 135t81 107 113 42q224 0 224-256 0-74-40.5-177.5t-105-204-137-189-144-143-117.5-54.5z" />
<glyph unicode="&#xe620;" d="M1024 704q-91 0-121-4 58 35 89 132-9-6-29.5-19t-33-20.5-31.5-15.5-36-11q-62 66-153 66-92 0-144.5-38.5t-52.5-121.5q0-4-1-27t-1-42.5 2-26.5q-134 7-237 53t-179 139q-32-55-32-96 0-57 16-94.5t56-64.5q-40-1-72-1 0-152 146-181-27-8-56-8-20 0-39 4 19-61 76.5-97.5t128.5-37.5q-23-23-54-37t-71-19.5-65-6.5-66-1q-4 0-29-1.5t-35-0.5q27-52 110.5-89t211.5-37q112 0 207.5 36.5t162 97.5 113.5 140 69 164 22 170q0 3 9.5 5.5t24.5 7.5 31.5 13.5 34 26.5 28.5 43z" />
<glyph unicode="&#xe621;" d="M928-64q-40 0-68 28t-28 68q0 150-58.5 286t-157 234.5-234.5 157-286 58.5q-40 0-68 28t-28 68 28 68 68 28q126 0 246.5-33.5t222-93 187.5-145.5 145.5-187.5 93-222 33.5-246.5q0-40-28-68t-68-28zM96 576q111 0 211.5-43t173.5-116 116-173.5 43-211.5q0-40-28-68t-68-28-68 28-28 68q0 151-100.5 251.5t-251.5 100.5q-40 0-68 28t-28 68 28 68 68 28zM128 192q53 0 90.5-37.5t37.5-90.5-37.5-90.5-90.5-37.5-90.5 37.5-37.5 90.5 37.5 90.5 90.5 37.5z" />
<glyph unicode="&#xe622;" d="M1024 64q0-26-18.5-45t-45.5-19h-896q-27 0-45.5 19t-18.5 45q0 17 9 32l439 736q8 18 11.5 24t12 18.5 18 17 22.5 4.5q17 0 29.5-10t19-21.5 15.5-32.5l439-736q9-15 9-32zM576 576q0 27-18.5 45.5t-45.5 18.5-45.5-18.5-18.5-45.5v-192q0-26 19-45t45-19 45 19 19 45v192zM511.5 256q-26.5 0-45-18.5t-18.5-45 19-45.5 45-19 45 19 19 45.5-19 45-45.5 18.5z" />
<glyph unicode="&#xe623;" d="M1005-45q-19-19-45.5-19t-45.5 19l-198 198q-120-89-268-89-91 0-174 35.5t-143 95.5-95.5 143-35.5 174 35.5 174 95.5 143 143 95.5 174 35.5 174-35.5 143-95.5 95.5-143 35.5-174q0-148-89-268l198-198q19-19 19-45.5t-19-45.5zM448 832q-87 0-160.5-43t-116.5-116.5-43-160.5 43-161 116.5-116.5 160.5-42.5 160.5 42.5 116.5 116.5 43 161-43 160.5-116.5 116.5-160.5 43zM576 448h-64v-64q0-27-19-45.5t-45.5-18.5-45 18.5-18.5 45.5v64h-64q-27 0-45.5 18.5t-18.5 45 18.5 45.5 45.5 19h64v64q0 26 18.5 45t45 19 45.5-19 19-45v-64h64q26 0 45-19t19-45.5-19-45-45-18.5z" />
<glyph unicode="&#xe624;" d="M947.5 12.5q-76.5-76.5-185-76.5t-184.5 77l-51 51 113 64 24-24q40-40 96-40t96 40 40 96-40 96l-240 241q-40 39-96.5 39t-96.5-39q-1-2-3-4-31-31-36-53l-96 96q4 7 10 15t9.5 11.5l13 13t12.5 11.5q76 77 184.5 77t184.5-77l245-245q77-76 77-184.5t-76.5-185zM360 792q-40 40-96 40t-96-40-40-96 40-96l240-241q40-40 96.5-40t96.5 40q1 2 3 4 31 31 36 53l96-96q-4-7-10-15t-9.5-11.5l-13-13t-12.5-11.5q-76-77-184.5-77t-184.5 77l-245 245q-77 76-77 184.5t76.5 185 185 76.5 184.5-77l51-51-113-64z" />
</font>
</defs>
</svg>
